<?xml  version="1.0" encoding="UTF-8"?>
<!DOCTYPE svg PUBLIC "-//W3C//DTD SVG 1.0//EN" "http://www.w3.org/TR/2001/REC-SVG-20010904/DTD/svg10.dtd" >
<svg xmlns="http://www.w3.org/2000/svg" >
<metadata>
<version>1.0</version>
<id><![CDATA[Futura BT W01 Light]]></id>
<vendor>Monotype Imaging Inc.</vendor>
<credits>
<name>Fonts.com WebFonts</name>
<URL>http://webfonts.fonts.com</URL>
<role>Home of the Web fonts</role>
</credits>
<license>
<URL>http://webfonts.fonts.com/Legal</URL>
</license>
<copyright><![CDATA[Copyright 1990-2003 Bitstream Inc. All rights reserved.]]></copyright>
<trademark></trademark>
<licensee>
<name></name>
</licensee>
</metadata>
<defs >
<font horiz-adv-x="1109" id="FuturaBTW01Light">
<font-face font-family="" panose-1="2 11 4 2 2 2 4 2 3 3" ascent="1972" descent="-483" units-per-em="2048" alphabetic="0">
</font-face>
<missing-glyph horiz-adv-x="0" />

<glyph unicode="&#xA;" />
<glyph unicode="&#xD;" horiz-adv-x="0" />
<glyph unicode=" " horiz-adv-x="590" />
<glyph unicode="!" horiz-adv-x="635" d="M215 63Q215 106 244 136T317 166Q360 166 390 136T420 63Q420 20 390 -9T317 -39Q274 -39 245 -10T215 63ZM256 303V1497H379V303H256Z"  />
<glyph unicode="&quot;" horiz-adv-x="551" d="M186 1434V881H100V1434H186ZM451 1434V881H365V1434H451Z"  />
<glyph unicode="#" horiz-adv-x="1575" d="M915 1454L741 956H1012L1188 1454H1298L1124 956H1446L1415 866H1092L991 584H1339L1309 494H958L784 0H672L848 494H578L399 0H289L463 494H129L160 584H496L596 866H236L264 956H629L805 1454H915ZM979 866H709L610 584H879L979 866Z"  />
<glyph unicode="$" horiz-adv-x="1180" d="M635 -168H555V6Q418 6 319 73T160 274L274 332Q305 233 375 179T555 115V748Q377 833 300 922T223 1130Q223 1265 310 1353T555 1464V1565H635V1466Q739 1454 811 1410T928 1288L823 1231Q796 1284 747 1315T635 1351V846Q839 749 917 655T995 420Q995 254 899 142T635 2V-168ZM635 117Q744 131 806 209T868 410Q868 509 813 581T635 711V117ZM555 1352Q467 1338 412 1278T356 1135Q356 1053 403 994T555 883V1352Z"  />
<glyph unicode="%" horiz-adv-x="1497" d="M270 -39L1112 1479H1221L379 -39H270ZM651 1104Q651 927 573 828T356 729Q218 729 141 827T63 1104Q63 1281 140 1380T356 1479Q495 1479 573 1380T651 1104ZM182 1106Q182 968 227 896T356 823Q441 823 486 896T532 1106Q532 1244 488 1315T356 1386Q272 1386 227 1314T182 1106ZM1436 334Q1436 157 1358 59T1141 -39Q1002 -39 925 59T848 334Q848 511 925 610T1141 709Q1280 709 1358 610T1436 334ZM967 336Q967 198 1011 126T1141 53Q1225 53 1271 126T1317 336Q1317 474 1273 545T1141 616Q1056 616 1012 544T967 336Z"  />
<glyph unicode="&amp;" horiz-adv-x="1311" d="M1145 0L963 215Q858 92 749 33T516 -27Q327 -27 207 88T86 381Q86 509 171 621T449 854L393 928Q324 1019 302 1076T279 1196Q279 1309 368 1383T598 1458Q725 1458 806 1382T887 1186Q887 1087 824 1003T616 829L977 383Q1024 440 1068 501T1151 625L1237 575Q1188 495 1139 426T1038 295L1290 0H1145ZM551 907L616 952Q694 1006 732 1065T770 1188Q770 1259 718 1307T590 1356Q507 1356 454 1309T401 1188Q401 1149 419 1105T469 1018L551 907ZM895 301L512 768L446 721Q299 614 256 546T213 387Q213 258 303 169T522 80Q609 80 701 135T895 301Z"  />
<glyph unicode="&apos;" horiz-adv-x="285" d="M186 1434V881H100V1434H186Z"  />
<glyph unicode="(" horiz-adv-x="559" d="M512 1483Q405 1266 352 1034T299 551Q299 276 352 42T512 -393L422 -446Q303 -224 244 26T184 555Q184 830 243 1073T422 1532L512 1483Z"  />
<glyph unicode=")" horiz-adv-x="559" d="M47 1483L137 1532Q257 1316 316 1073T375 555Q375 277 316 27T137 -446L47 -393Q155 -190 208 44T262 551Q262 799 209 1031T47 1483Z"  />
<glyph unicode="*" horiz-adv-x="854" d="M162 928L119 1006L352 1128L119 1257L162 1335L389 1190L383 1464H471L463 1190L692 1333L735 1257L502 1128L735 1006L688 928L461 1067L469 801H383L391 1065L162 928Z"  />
<glyph unicode="+" horiz-adv-x="1706" d="M893 1221V651H1452V569H893V0H813V569H254V651H813V1221H893Z"  />
<glyph unicode="&#x2c;" horiz-adv-x="590" d="M324 254L469 193L205 -322L121 -283L324 254Z"  />
<glyph unicode="-" horiz-adv-x="711" d="M137 506H573V377H137V506Z"  />
<glyph unicode="." horiz-adv-x="590" d="M193 84Q193 127 222 156T295 186Q338 186 367 157T397 84Q397 41 368 12T295 -18Q252 -18 223 11T193 84Z"  />
<glyph unicode="/" horiz-adv-x="825" d="M717 1497H825L109 -190H0L717 1497Z"  />
<glyph unicode="0" horiz-adv-x="1180" d="M588 -39Q363 -39 233 163T102 719Q102 1074 232 1276T592 1479Q820 1479 949 1278T1079 719Q1079 359 950 160T588 -39ZM236 717Q236 418 330 249T592 80Q766 80 856 243T946 721Q946 1032 855 1196T588 1360Q423 1360 330 1190T236 717Z"  />
<glyph unicode="1" horiz-adv-x="1180" d="M545 0V1331H281L344 1450H674V0H545Z"  />
<glyph unicode="2" horiz-adv-x="1180" d="M1012 115V0H72L387 346Q420 383 483 451Q874 876 874 1063Q874 1195 785 1277T551 1360Q404 1360 319 1268T233 1014H102V1028Q102 1237 226 1358T565 1479Q771 1479 894 1368T1018 1071Q1018 837 673 469L664 459L342 115H1012Z"  />
<glyph unicode="3" horiz-adv-x="1180" d="M242 368Q251 227 332 154T561 80Q714 80 800 162T887 389Q887 536 800 619T557 702Q534 702 523 702T502 701V827Q529 825 543 824T567 823Q707 823 785 893T864 1087Q864 1211 786 1286T578 1362Q460 1362 388 1300T301 1126H158Q175 1290 287 1384T578 1479Q767 1479 884 1374T1001 1100Q1001 975 935 886T748 760Q881 715 953 619T1026 389Q1026 194 900 78T561 -39Q352 -39 233 66T98 369L242 368Z"  />
<glyph unicode="4" horiz-adv-x="1180" d="M721 0V371H61L854 1499V485H1004V371H854V0H721ZM721 485V1145L260 485H721Z"  />
<glyph unicode="5" horiz-adv-x="1180" d="M350 883Q406 907 460 919T567 932Q775 932 902 805T1030 471Q1030 242 893 101T535 -41Q380 -41 268 28T82 240L186 317Q250 195 336 138T541 80Q702 80 797 184T893 463Q893 626 796 721T530 817Q437 817 361 791T227 711L186 715L373 1450H965V1337H465L350 883Z"  />
<glyph unicode="6" horiz-adv-x="1180" d="M391 805Q449 842 506 860T625 879Q813 879 932 754T1051 428Q1051 220 917 90T569 -41Q365 -41 244 81T123 408Q123 528 175 652T410 1030L752 1507L860 1440L391 805ZM260 416Q260 261 349 169T588 76Q735 76 824 173T913 434Q913 580 823 673T590 766Q444 766 352 669T260 416Z"  />
<glyph unicode="7" horiz-adv-x="1180" d="M223 18L891 1337H184V1450H1083L346 -45L223 18Z"  />
<glyph unicode="8" horiz-adv-x="1180" d="M412 788Q302 824 241 911T180 1120Q180 1277 295 1378T592 1479Q779 1479 890 1377T1001 1104Q1001 991 942 911T770 788Q903 753 979 649T1055 397Q1055 194 932 78T592 -39Q376 -39 251 77T125 393Q125 543 201 648T412 788ZM594 842Q720 842 793 911T866 1100Q866 1220 792 1291T592 1362Q467 1362 393 1291T319 1100Q319 981 393 912T594 842ZM590 80Q742 80 830 165T918 399Q918 549 830 636T590 723Q438 723 351 637T264 399Q264 250 350 165T590 80Z"  />
<glyph unicode="9" horiz-adv-x="1180" d="M782 633Q726 596 670 579T551 561Q362 561 243 685T123 1010Q123 1218 257 1348T604 1479Q808 1479 930 1357T1053 1030Q1053 905 994 771T764 408L414 -68L305 -2L782 633ZM915 1022Q915 1177 826 1270T588 1364Q440 1364 351 1266T262 1006Q262 859 351 766T584 672Q730 672 822 770T915 1022Z"  />
<glyph unicode=":" horiz-adv-x="635" d="M215 760Q215 803 244 832T317 862Q360 862 390 833T420 760Q420 717 390 687T317 657Q274 657 245 687T215 760ZM215 84Q215 127 244 156T317 186Q360 186 390 157T420 84Q420 41 390 12T317 -18Q274 -18 245 11T215 84Z"  />
<glyph unicode=";" horiz-adv-x="635" d="M332 254L477 193L213 -322L129 -283L332 254ZM301 760Q301 803 330 832T403 862Q446 862 476 833T506 760Q506 717 476 687T403 657Q360 657 331 687T301 760Z"  />
<glyph unicode="&lt;" horiz-adv-x="1706" d="M1442 1034L397 610L1442 186V98L264 580V641L1442 1124V1034Z"  />
<glyph unicode="=" horiz-adv-x="1706" d="M1452 831V752H254V831H1452ZM1452 469V387H254V469H1452Z"  />
<glyph unicode="&gt;" horiz-adv-x="1706" d="M1442 641V580L264 98V186L1309 610L264 1034V1124L1442 641Z"  />
<glyph unicode="?" horiz-adv-x="1053" d="M291 1096H172V1128Q172 1300 269 1398T535 1497Q687 1497 777 1407T868 1165Q868 1054 820 979T625 809Q599 793 553 764Q354 641 354 532Q354 460 400 417T522 373Q611 373 660 419T709 551V569H819V545Q819 410 739 338T508 266Q384 266 306 341T227 535Q227 622 273 688T444 838Q470 854 517 884Q743 1027 743 1157Q743 1254 685 1312T528 1370Q414 1370 353 1300T291 1102V1096ZM401 63Q401 106 431 136T504 166Q547 166 576 136T606 63Q606 20 577 -9T504 -39Q461 -39 431 -10T401 63Z"  />
<glyph unicode="@" horiz-adv-x="2048" d="M1219 467L1282 721Q1260 820 1201 872T1049 924Q897 924 794 786T690 446Q690 331 747 266T907 201Q1018 201 1103 273T1219 467ZM1303 827L1364 956H1444L1307 403Q1297 367 1292 339T1286 295Q1286 251 1316 227T1403 203Q1451 203 1503 222T1606 279Q1707 353 1768 486T1829 768Q1829 1041 1630 1207T1104 1374Q936 1374 794 1326T535 1182Q381 1054 303 885T225 510Q225 183 446 -12T1038 -207Q1199 -207 1362 -157T1661 -14L1690 -59Q1544 -169 1382 -224T1042 -279Q855 -279 699 -233T422 -94Q270 21 196 173T121 522Q121 684 171 829T319 1094Q463 1269 664 1359T1114 1450Q1274 1450 1418 1406T1667 1282Q1795 1184 1861 1056T1927 778Q1927 609 1864 470T1683 238Q1616 184 1538 156T1378 127Q1283 127 1235 163T1186 272Q1186 284 1189 306Q1190 309 1190 311Q1141 223 1065 175T899 127Q745 127 666 210T586 453Q586 681 720 839T1047 997Q1142 997 1207 954T1303 827Z"  />
<glyph unicode="A" horiz-adv-x="1223" d="M-18 0L625 1522L1241 0H1096L909 496H311L117 0H-18ZM356 610H866L616 1247L356 610Z"  />
<glyph unicode="B" horiz-adv-x="1133" d="M182 0V1464H436Q603 1464 677 1448T803 1393Q876 1338 914 1259T952 1083Q952 966 891 884T723 776Q864 755 944 663T1024 430Q1024 327 993 247T899 109Q835 49 745 25T438 0H182ZM315 115H485Q630 115 685 127T778 168Q825 204 853 267T881 403Q881 491 850 557T764 657Q726 679 675 688T514 698H485H315V115ZM315 813H481Q664 813 739 873T815 1073Q815 1224 742 1286T481 1348H315V813Z"  />
<glyph unicode="C" horiz-adv-x="1464" d="M1358 1196Q1249 1290 1135 1335T895 1380Q611 1380 434 1200T256 731Q256 586 299 470T432 264Q520 176 633 130T877 84Q1003 84 1123 127T1350 254V98Q1242 32 1122 -3T883 -39Q724 -39 579 18T330 178Q223 284 168 424T113 731Q113 895 169 1037T332 1282Q435 1383 580 1440T883 1497Q1023 1497 1142 1459T1360 1343L1358 1196Z"  />
<glyph unicode="D" horiz-adv-x="1427" d="M182 0V1464H410Q715 1464 843 1434T1063 1331Q1185 1234 1249 1081T1313 731Q1313 534 1249 381T1065 135Q970 62 848 31T455 0H410H182ZM315 115H502Q729 115 824 140T985 227Q1077 313 1124 441T1171 733Q1171 901 1124 1029T983 1239Q913 1302 812 1328T459 1354H434H315V115Z"  />
<glyph unicode="E" horiz-adv-x="1051" d="M182 0V1464H907V1339H315V881H907V756H315V125H907V0H182Z"  />
<glyph unicode="F" horiz-adv-x="1026" d="M182 0V1464H907V1339H315V881H885V756H315V0H182Z"  />
<glyph unicode="G" horiz-adv-x="1673" d="M1382 1096Q1293 1234 1163 1305T870 1376Q598 1376 427 1192T256 715Q256 584 301 468T434 262Q522 173 631 129T870 84Q1116 84 1270 229T1429 608H924V723H1575V707Q1575 357 1384 159T858 -39Q525 -39 319 173T113 729Q113 887 165 1027T315 1272Q421 1385 554 1441T852 1497Q1075 1497 1234 1417T1479 1180L1382 1096Z"  />
<glyph unicode="H" horiz-adv-x="1427" d="M182 0V1464H315V870H1112V1464H1245V0H1112V756H315V0H182Z"  />
<glyph unicode="I" horiz-adv-x="498" d="M182 0V1464H315V0H182Z"  />
<glyph unicode="J" horiz-adv-x="764" d="M467 401V1464H600V315Q600 141 521 51T289 -39Q196 -39 125 -1T6 113L100 199Q142 142 187 115T285 88Q383 88 425 158T467 401Z"  />
<glyph unicode="K" horiz-adv-x="1176" d="M182 0V1464H315V778L977 1464H1151L457 764L1184 0H991L315 743V0H182Z"  />
<glyph unicode="L" horiz-adv-x="846" d="M182 0V1464H315V125H817V0H182Z"  />
<glyph unicode="M" horiz-adv-x="1712" d="M850 -57L336 1118L225 0H88L287 1526L848 223L1430 1526L1618 0H1481L1372 1118L850 -57Z"  />
<glyph unicode="N" horiz-adv-x="1526" d="M182 0V1526L1219 301V1464H1343V-43L307 1184V0H182Z"  />
<glyph unicode="O" horiz-adv-x="1792" d="M1679 729Q1679 574 1620 435T1450 186Q1337 76 1195 19T895 -39Q737 -39 596 18T342 186Q230 297 172 435T113 729Q113 886 171 1025T342 1276Q452 1385 593 1441T895 1497Q1057 1497 1198 1441T1450 1276Q1562 1165 1620 1026T1679 729ZM895 80Q1025 80 1141 128T1350 268Q1441 361 1489 479T1538 729Q1538 861 1490 978T1350 1190Q1259 1282 1143 1330T895 1378Q765 1378 650 1330T442 1190Q350 1095 302 979T254 729Q254 597 302 480T442 268Q534 175 648 128T895 80Z"  />
<glyph unicode="P" horiz-adv-x="1024" d="M315 774H406Q648 774 731 835T815 1051Q815 1116 796 1170T739 1268Q700 1312 633 1330T406 1348H315V774ZM182 0V1464H449Q607 1464 681 1447T811 1391Q880 1341 918 1254T956 1061Q956 852 839 755T469 657H315V0H182Z"  />
<glyph unicode="Q" horiz-adv-x="1792" d="M1692 -102H1530L1352 104Q1246 36 1131 3T883 -31Q728 -31 589 25T342 188Q230 299 172 437T113 731Q113 887 171 1026T342 1274Q452 1382 594 1439T895 1497Q1054 1497 1197 1440T1450 1274Q1562 1165 1620 1026T1679 731Q1679 571 1621 436T1444 186L1692 -102ZM926 600H1090L1362 283Q1450 378 1494 490T1538 731Q1538 863 1490 980T1350 1190Q1259 1282 1142 1331T895 1380Q767 1380 651 1332T442 1190Q351 1097 304 981T256 731Q256 598 303 481T442 272Q535 180 651 132T899 84Q1005 84 1101 115T1266 205L926 600Z"  />
<glyph unicode="R" horiz-adv-x="1081" d="M1071 0H909L395 698H315V0H182V1464H451Q689 1464 807 1365T926 1065Q926 894 825 796T545 698L1071 0ZM315 1348V807H449Q635 807 708 866T782 1069Q782 1220 706 1284T449 1348H315Z"  />
<glyph unicode="S" horiz-adv-x="1020" d="M70 246L184 307Q216 199 294 140T483 80Q622 80 700 162T778 389Q778 495 726 565T500 727Q279 844 206 933T133 1147Q133 1303 238 1401T512 1499Q622 1499 703 1453T836 1313L733 1251Q701 1314 643 1347T504 1380Q396 1380 332 1317T268 1145Q268 991 522 858Q568 834 592 821Q779 718 842 627T905 389Q905 192 790 77T477 -39Q333 -39 231 32T70 246Z"  />
<glyph unicode="T" horiz-adv-x="1018" d="M442 0V1339H39V1464H979V1339H575V0H442Z"  />
<glyph unicode="U" horiz-adv-x="1417" d="M176 1464H307V508Q307 291 406 186T709 80Q910 80 1009 185T1108 508V1464H1241V551Q1241 254 1109 108T709 -39Q440 -39 308 107T176 551V1464Z"  />
<glyph unicode="V" horiz-adv-x="1128" d="M555 -57L-18 1464H135L557 272L1001 1464H1147L555 -57Z"  />
<glyph unicode="W" horiz-adv-x="1839" d="M530 -57L25 1464H164L530 295L920 1522L1325 305L1677 1464H1815L1325 -57L920 1186L530 -57Z"  />
<glyph unicode="X" horiz-adv-x="991" d="M121 0H-25L422 770L18 1464H168L498 883L831 1464H975L571 774L1016 0H868L496 649L121 0Z"  />
<glyph unicode="Y" horiz-adv-x="1118" d="M496 0V674L10 1464H170L563 793L958 1464H1110L629 674V0H496Z"  />
<glyph unicode="Z" horiz-adv-x="1147" d="M25 0L895 1343H152V1464H1122L256 123H1034V0H25Z"  />
<glyph unicode="[" horiz-adv-x="559" d="M221 1497H512V1399H338V-313H512V-412H221V1497Z"  />
<glyph unicode="\" horiz-adv-x="825" d="M717 -190L0 1497H109L825 -190H717Z"  />
<glyph unicode="]" horiz-adv-x="559" d="M338 1497V-412H47V-313H223V1399H47V1497H338Z"  />
<glyph unicode="^" horiz-adv-x="2048" d="M1081 1458L1622 901H1497L1024 1370L549 901H424L963 1458H1081Z"  />
<glyph unicode="_" horiz-adv-x="1024" d="M1024 -403V-483H0V-403H1024Z"  />
<glyph unicode="`" horiz-adv-x="1024" d="M645 1030H551L268 1380H432L645 1030Z"  />
<glyph unicode="a" horiz-adv-x="1108" d="M819 0V162Q775 64 696 13T508 -39Q317 -39 201 92T84 438Q84 651 199 785T496 920Q609 920 691 871T819 725V887H942V0H819ZM221 434Q221 262 298 169T520 76Q660 76 740 177T821 457Q821 620 741 713T522 807Q383 807 302 708T221 434Z"  />
<glyph unicode="b" horiz-adv-x="1108" d="M287 0H164V1550H287V725Q332 821 413 870T608 920Q790 920 905 786T1020 438Q1020 223 904 92T596 -39Q489 -39 410 12T287 162V0ZM883 434Q883 608 802 707T582 807Q443 807 364 714T285 457Q285 279 365 178T586 76Q729 76 806 168T883 434Z"  />
<glyph unicode="c" horiz-adv-x="934" d="M854 725Q792 768 722 789T578 811Q413 811 315 706T217 424Q217 268 318 167T578 66Q650 66 723 91T868 166V31Q803 -6 724 -24T555 -43Q352 -43 222 90T92 432Q92 649 227 784T580 920Q660 920 730 905T856 860L854 725Z"  />
<glyph unicode="d" horiz-adv-x="1108" d="M821 0V162Q777 63 698 12T512 -39Q321 -39 205 92T88 438Q88 651 203 785T500 920Q613 920 694 871T821 725V1550H946V0H821ZM225 434Q225 262 302 169T524 76Q663 76 743 177T823 457Q823 620 744 713T526 807Q387 807 306 708T225 434Z"  />
<glyph unicode="e" horiz-adv-x="1018" d="M926 440H221Q226 268 307 170T524 72Q622 72 696 125T819 285L932 223Q864 88 766 25T524 -39Q329 -39 209 91T88 434Q88 652 207 786T520 920Q704 920 815 797T926 467V440ZM780 545Q771 667 699 734T504 801Q392 801 317 731T229 545H780Z"  />
<glyph unicode="f" horiz-adv-x="530" d="M193 0V782H27V887H193V1143Q193 1410 243 1489T426 1569Q459 1569 489 1564T545 1548L522 1440Q498 1452 476 1458T434 1464Q369 1464 342 1413T315 1223V887H510V782H315V0H193Z"  />
<glyph unicode="g" horiz-adv-x="1108" d="M520 807Q382 807 303 709T223 438Q223 267 298 172T508 76Q650 76 735 177T821 449Q821 617 741 712T520 807ZM944 887V154Q944 -21 935 -113T903 -250Q857 -349 762 -397T522 -446Q345 -446 247 -378T127 -170H281Q296 -252 359 -294T532 -336Q614 -336 679 -307T778 -227Q800 -194 809 -151T819 -16V31V164Q778 69 694 15T500 -39Q313 -39 202 91T90 440Q90 657 204 788T506 920Q611 920 696 866T819 721V887H944Z"  />
<glyph unicode="h" horiz-adv-x="1067" d="M164 0V1550H281V750Q335 835 413 877T594 920Q745 920 829 836T913 602V0H788V547Q788 680 733 744T561 809Q420 809 354 726T287 463V0H164Z"  />
<glyph unicode="i" horiz-adv-x="471" d="M172 0V887H299V0H172ZM141 1233Q141 1272 169 1299T236 1327Q275 1327 303 1300T332 1233Q332 1193 305 1166T236 1139Q196 1139 169 1166T141 1233Z"  />
<glyph unicode="j" horiz-adv-x="471" d="M172 -446V887H299V-446H172ZM141 1233Q141 1272 169 1299T236 1327Q275 1327 303 1300T332 1233Q332 1193 305 1166T236 1139Q196 1139 169 1166T141 1233Z"  />
<glyph unicode="k" horiz-adv-x="938" d="M164 0V1550H287V494L729 887H899L424 489L934 0H764L287 459V0H164Z"  />
<glyph unicode="l" horiz-adv-x="471" d="M299 0H172V1550H299V0Z"  />
<glyph unicode="m" horiz-adv-x="1616" d="M287 0H164V887H287V748Q331 832 403 876T569 920Q666 920 734 876T840 745Q893 833 970 876T1149 920Q1290 920 1371 835T1452 600V0H1329V551Q1329 681 1276 747T1116 813Q989 813 930 730T870 467V0H748V551Q748 687 697 750T539 813Q409 813 348 729T287 467V0Z"  />
<glyph unicode="n" horiz-adv-x="1067" d="M164 0V887H281V750Q335 835 413 877T594 920Q745 920 829 836T913 602V0H788V547Q788 680 733 744T561 809Q420 809 354 726T287 463V0H164Z"  />
<glyph unicode="o" horiz-adv-x="1143" d="M567 -39Q472 -39 385 -2T227 106Q160 172 125 258T90 442Q90 539 126 626T229 780Q297 848 384 884T567 920Q665 920 753 884T911 780Q980 712 1016 625T1053 442Q1053 346 1017 260T913 106Q843 36 754 -1T567 -39ZM571 76Q717 76 818 181T920 440Q920 595 819 700T571 805Q425 805 324 700T223 440Q223 287 324 182T571 76Z"  />
<glyph unicode="p" horiz-adv-x="1108" d="M164 -446V887H283V721Q334 817 416 868T600 920Q787 920 901 789T1016 440Q1016 222 904 92T606 -39Q499 -39 417 12T283 164V-446H164ZM883 438Q883 610 805 708T588 807Q446 807 366 712T285 449Q285 279 371 178T600 76Q734 76 808 171T883 438Z"  />
<glyph unicode="q" horiz-adv-x="1108" d="M944 -446H825V164Q773 64 691 13T500 -39Q314 -39 202 91T90 440Q90 657 204 788T506 920Q609 920 692 868T825 721V887H944V-446ZM520 807Q382 807 303 709T223 438Q223 267 298 172T508 76Q650 76 735 177T821 449Q821 617 741 712T520 807Z"  />
<glyph unicode="r" horiz-adv-x="645" d="M287 709Q355 824 420 872T573 920Q599 920 625 915T678 901L638 785Q618 791 597 795T555 799Q444 799 366 695T287 436V0H164V887H287V709Z"  />
<glyph unicode="s" horiz-adv-x="782" d="M63 158L180 225Q209 151 264 114T399 76Q477 76 523 115T569 221Q569 323 388 394Q369 401 358 406Q218 461 162 519T106 664Q106 777 186 849T393 922Q501 922 577 875T688 741L575 678Q554 741 505 774T385 807Q321 807 280 770T238 676Q238 621 279 585T449 506Q595 455 645 395T696 229Q696 107 609 34T375 -39Q262 -39 181 12T63 158Z"  />
<glyph unicode="t" horiz-adv-x="508" d="M190 782H27V887H190V1251H311V887H489V782H311V0H190V782Z"  />
<glyph unicode="u" horiz-adv-x="1079" d="M287 887V444Q287 242 344 159T539 76Q675 76 734 160T793 444V887H915V381Q915 174 820 68T541 -39Q356 -39 260 67T164 381V887H287Z"  />
<glyph unicode="v" horiz-adv-x="874" d="M31 887H166L438 215L709 887H846L438 -57L31 887Z"  />
<glyph unicode="w" horiz-adv-x="1327" d="M379 -57L25 887H154L385 248L664 934L942 248L1174 887H1303L948 -57L666 649L379 -57Z"  />
<glyph unicode="x" horiz-adv-x="807" d="M31 887H184L401 561L618 887H768L469 461L799 0H647L399 358L154 0H0L332 461L31 887Z"  />
<glyph unicode="y" horiz-adv-x="825" d="M43 887H174L428 193L662 887H793L334 -446H207L362 6L43 887Z"  />
<glyph unicode="z" horiz-adv-x="780" d="M23 0L518 776H57V887H731L240 111H745V0H23Z"  />
<glyph unicode="{" horiz-adv-x="1024" d="M848 1389H811Q676 1389 629 1338T582 1124V883Q582 708 539 635T387 530Q496 498 539 426T582 178V-63Q582 -225 628 -275T809 -326H848V-414H805Q616 -414 548 -340T479 -39V201Q479 359 421 423T221 487Q214 487 200 486T176 485V575Q186 574 196 574T225 573Q364 573 421 637T479 860V1100Q479 1327 547 1402T805 1477H848V1389Z"  />
<glyph unicode="|" horiz-adv-x="1024" d="M557 1565V-483H467V1565H557Z"  />
<glyph unicode="}" horiz-adv-x="1024" d="M545 1100V860Q545 702 603 638T803 573Q810 573 824 574T848 575V485Q839 485 825 486T803 487Q661 487 603 423T545 201V-39Q545 -265 477 -339T219 -414H176V-326H215Q349 -326 395 -276T442 -63V178Q442 352 485 425T639 530Q529 562 486 635T442 883V1124Q442 1286 395 1337T213 1389H176V1477H219Q408 1477 476 1402T545 1100Z"  />
<glyph unicode="~" horiz-adv-x="1706" d="M1530 647Q1424 573 1328 537T1143 500Q1044 500 877 561Q861 567 855 569Q843 573 822 581Q655 641 565 641Q482 641 390 604T178 481V573Q283 647 379 683T565 719Q665 719 836 658Q848 653 855 651Q863 648 882 641Q1050 580 1143 580Q1226 580 1318 617T1530 739V647Z"  />
<glyph unicode="&#xA0;" horiz-adv-x="1180" />
<glyph unicode="&#xA1;" horiz-adv-x="635" d="M215 1395Q215 1438 244 1467T317 1497Q360 1497 390 1468T420 1395Q420 1352 390 1322T317 1292Q274 1292 245 1322T215 1395ZM256 1157H379V0H256V1157Z"  />
<glyph unicode="&#xA2;" horiz-adv-x="1180" d="M930 1028Q868 1068 798 1089T648 1114L647 369Q745 380 814 403T930 465V334Q873 299 803 282T648 262L647 57H567V264Q370 275 247 406T123 735Q123 935 242 1065T567 1221V1382H647V1223Q715 1223 785 1208T930 1163V1028ZM567 1110Q431 1096 343 994T254 748Q254 594 337 495T567 375V1110Z"  />
<glyph unicode="&#xA3;" horiz-adv-x="1180" d="M100 20Q136 88 184 130T295 190Q336 247 355 297T375 395Q375 439 364 488T330 600H100V690H285Q234 796 208 889T182 1061Q182 1245 307 1362T631 1479Q833 1479 949 1367T1073 1051L946 1029Q943 1186 861 1274T635 1362Q489 1362 403 1280T317 1059Q317 993 342 902T418 690H807V600H449Q469 545 478 502T487 424Q487 353 462 296T386 195Q477 193 612 137T803 80Q864 80 915 114T1014 223L1102 164Q1047 61 976 12T811 -37Q727 -37 591 23T395 84Q336 84 285 53T186 -41L100 20Z"  />
<glyph unicode="&#xA4;" horiz-adv-x="1180" d="M1108 250L1104 98Q1028 34 932 -2T743 -39Q518 -39 363 119T168 549H4L25 647H157Q157 659 157 673T156 719Q156 736 156 755T159 809H4L25 909H172Q218 1169 373 1324T743 1479Q849 1479 938 1441T1102 1325V1176Q1019 1270 934 1315T754 1360Q580 1360 462 1241T303 909H954L926 809H291Q288 775 288 756T287 719Q287 688 287 674T289 647H877L846 549H299Q334 331 452 206T739 80Q838 80 934 124T1108 250Z"  />
<glyph unicode="&#xA5;" horiz-adv-x="1182" d="M530 0V631H33V729H489L391 891H33V991H326L43 1452H190L592 776L1004 1452H1139L858 991H1147V891H795L696 729H1147V631H657V0H530Z"  />
<glyph unicode="&#xA6;" horiz-adv-x="1024" d="M557 1432V674H467V1432H557ZM557 408V-350H467V408H557Z"  />
<glyph unicode="&#xA7;" horiz-adv-x="1042" d="M176 -92L303 -93Q306 -209 362 -267T530 -326Q634 -326 693 -270T752 -113Q752 -32 707 16T494 127Q370 172 317 198T233 252Q173 306 144 374T115 530Q115 653 187 746T385 879Q273 925 220 998T166 1176Q166 1323 266 1411T537 1499Q705 1499 795 1413T885 1165V1145H750Q745 1267 690 1329T528 1391Q431 1391 369 1333T307 1184Q307 1095 358 1040T567 928Q772 854 853 765T934 535Q934 400 867 310T670 178Q778 131 832 55T887 -127Q887 -269 788 -362T532 -455Q368 -455 272 -363T176 -115V-92ZM526 254Q640 254 720 334T801 530Q801 652 725 728T526 805Q411 805 331 725T250 530Q250 404 325 329T526 254Z"  />
<glyph unicode="&#xA8;" horiz-adv-x="1024" d="M240 1188Q240 1228 268 1257T336 1286Q376 1286 405 1257T434 1188Q434 1147 406 1120T336 1092Q294 1092 267 1118T240 1188ZM590 1188Q590 1228 619 1257T688 1286Q728 1286 756 1257T784 1188Q784 1146 757 1119T688 1092Q646 1092 618 1119T590 1188Z"  />
<glyph unicode="&#xA9;" horiz-adv-x="1706" d="M852 1452Q1001 1452 1134 1397T1372 1237Q1475 1135 1529 1002T1583 721Q1583 571 1530 441T1372 209Q1265 103 1131 47T852 -10Q707 -10 575 45T338 207Q233 311 178 443T123 721Q123 866 179 1000T340 1241Q441 1344 572 1398T852 1452ZM1511 721Q1511 854 1462 973T1321 1186Q1226 1281 1106 1330T852 1380Q719 1380 601 1331T391 1190Q296 1093 246 972T195 721Q195 591 245 472T389 258Q483 164 602 114T852 63Q982 63 1103 114T1321 260Q1414 352 1462 469T1511 721ZM1081 918Q1061 999 1002 1044T854 1090Q728 1090 658 993T588 719Q588 550 659 452T854 354Q945 354 1010 406T1094 547H1196Q1185 424 1088 346T848 268Q675 268 573 391T471 725Q471 930 578 1053T860 1176Q992 1176 1082 1104T1186 918H1081Z"  />
<glyph unicode="&#xAA;" horiz-adv-x="831" d="M614 844V956Q580 888 521 853T381 817Q237 817 150 908T63 1151Q63 1300 149 1393T373 1487Q458 1487 519 1453T614 1352V1464H707V844H614ZM166 1147Q166 1027 224 962T391 897Q495 897 555 968T616 1163Q616 1278 556 1343T391 1409Q287 1409 227 1339T166 1147Z"  />
<glyph unicode="&#xAB;" horiz-adv-x="782" d="M297 49L45 436L289 831L375 778L166 434L379 102L297 49ZM655 49L401 436L647 831L733 778L522 434L737 102L655 49Z"  />
<glyph unicode="&#xAC;" horiz-adv-x="1706" d="M1452 856V354H1374V774H254V856H1452Z"  />
<glyph unicode="&#xAD;" horiz-adv-x="711" d="M137 506H573V377H137V506Z"  />
<glyph unicode="&#xAE;" horiz-adv-x="1706" d="M852 1452Q1001 1452 1134 1397T1372 1237Q1475 1135 1529 1002T1583 721Q1583 571 1530 441T1372 209Q1265 103 1131 47T852 -10Q707 -10 575 45T338 207Q233 311 178 443T123 721Q123 866 179 1000T340 1241Q441 1344 572 1398T852 1452ZM1511 721Q1511 854 1462 973T1321 1186Q1226 1281 1106 1330T852 1380Q719 1380 601 1331T391 1190Q296 1093 246 972T195 721Q195 591 245 472T389 258Q483 164 602 114T852 63Q982 63 1103 114T1321 260Q1414 352 1462 469T1511 721ZM874 1155Q1054 1155 1138 1099T1223 922Q1223 833 1168 773T1020 702L1210 309H1079L897 686H684V309H569V1155H874ZM852 1077H684V764H852Q997 764 1051 800T1106 926Q1106 1004 1045 1040T852 1077Z"  />
<glyph unicode="&#xAF;" horiz-adv-x="1024" d="M254 1118V1235H770V1118H254Z"  />
<glyph unicode="&#xB0;" horiz-adv-x="674" d="M338 1450Q450 1450 530 1370T610 1176Q610 1062 530 983T336 903Q221 903 142 982T63 1176Q63 1290 143 1370T338 1450ZM551 1176Q551 1263 488 1326T338 1389Q249 1389 187 1327T125 1176Q125 1087 187 1025T338 963Q426 963 488 1025T551 1176Z"  />
<glyph unicode="&#xB1;" horiz-adv-x="1706" d="M893 1161V807H1452V727H893V375H813V727H254V807H813V1161H893ZM1452 141V59H254V141H1452Z"  />
<glyph unicode="&#xB2;" horiz-adv-x="778" d="M668 645V575H47L256 782Q277 803 316 842Q578 1101 578 1212Q578 1291 519 1341T365 1391Q266 1391 210 1336T154 1184H68V1192Q68 1317 149 1389T373 1462Q508 1462 590 1396T672 1219Q672 1080 451 862L438 850L225 645H668Z"  />
<glyph unicode="&#xB3;" horiz-adv-x="778" d="M160 797Q166 711 219 667T371 623Q471 623 528 672T586 809Q586 897 529 947T369 997Q353 997 346 997T332 996V1071Q339 1071 353 1070T375 1069Q467 1069 519 1111T571 1229Q571 1303 519 1348T381 1393Q304 1393 256 1356T199 1252L104 1251Q115 1349 189 1405T381 1462Q506 1462 584 1400T662 1235Q662 1161 618 1108T494 1032Q582 1004 630 946T678 809Q678 692 595 623T371 553Q232 553 154 616T66 797H160Z"  />
<glyph unicode="&#xB4;" horiz-adv-x="1024" d="M379 1030L592 1380H756L473 1030H379Z"  />
<glyph unicode="&#xB5;" horiz-adv-x="1094" d="M326 1063L203 473Q194 430 190 396T186 332Q186 206 246 140T420 74Q547 74 639 183T776 496L901 1063H1022L856 277Q854 268 851 253Q831 161 831 141Q831 110 848 94T899 78Q908 78 917 78T938 80L920 -16Q917 -17 912 -18Q863 -29 844 -29Q776 -29 744 2T711 98Q711 105 711 114T715 143Q672 60 592 16T403 -29Q306 -29 234 16T129 143L10 -424H-111L205 1063H326Z"  />
<glyph unicode="&#xB6;" horiz-adv-x="1024" d="M932 1415H803V0H733V1415H541V0H471V782Q296 790 193 884T90 1130Q90 1287 198 1383T485 1479H932V1415Z"  />
<glyph unicode="&#xB7;" horiz-adv-x="590" d="M193 719Q193 762 222 791T295 821Q338 821 367 792T397 719Q397 676 368 646T295 616Q252 616 223 646T193 719Z"  />
<glyph unicode="&#xB8;" horiz-adv-x="1024" d="M301 -379V-309Q399 -329 446 -335T526 -342Q589 -342 620 -320T651 -254Q651 -208 616 -186T510 -164Q504 -164 490 -165T469 -166V0H530V-100H545Q648 -100 703 -139T758 -252Q758 -334 704 -375T543 -416Q493 -416 434 -407T301 -379Z"  />
<glyph unicode="&#xB9;" horiz-adv-x="778" d="M360 575V1374H186L227 1446H444V575H360Z"  />
<glyph unicode="&#xBA;" horiz-adv-x="858" d="M426 817Q354 817 289 842T170 918Q119 965 94 1024T68 1153Q68 1221 94 1282T172 1391Q222 1437 287 1462T426 1487Q501 1487 566 1463T684 1391Q736 1342 763 1281T791 1153Q791 1086 764 1026T686 918Q633 869 566 843T426 817ZM428 897Q538 897 614 971T690 1153Q690 1260 615 1333T428 1407Q318 1407 243 1334T168 1153Q168 1046 243 972T428 897Z"  />
<glyph unicode="&#xBB;" horiz-adv-x="782" d="M485 49L401 102L616 434L408 778L494 831L737 436L485 49ZM127 49L45 102L260 434L49 778L135 831L379 436L127 49Z"  />
<glyph unicode="&#xBC;" horiz-adv-x="1829" d="M344 633V1378H176L217 1444H424V633H344ZM401 -39L1319 1479H1425L510 -39H401ZM1540 0V207H1124L1624 840V272H1718V207H1624V0H1540ZM1540 272V641L1249 272H1540Z"  />
<glyph unicode="&#xBD;" horiz-adv-x="1829" d="M344 633V1378H176L217 1444H424V633H344ZM401 -39L1319 1479H1425L510 -39H401ZM1722 63V0H1130L1329 195Q1347 212 1382 245Q1636 489 1636 596Q1636 669 1579 715T1432 762Q1339 762 1286 710T1233 567H1151V575Q1151 693 1228 760T1442 827Q1572 827 1649 766T1726 600Q1726 469 1508 261L1503 256L1300 63H1722Z"  />
<glyph unicode="&#xBE;" horiz-adv-x="1829" d="M152 840Q158 760 209 719T354 678Q450 678 504 724T559 850Q559 934 504 980T350 1026H315V1096Q323 1096 337 1095T358 1094Q446 1094 495 1133T545 1241Q545 1311 496 1353T365 1395Q290 1395 244 1361T190 1264H101Q109 1354 180 1407T365 1460Q484 1460 557 1402T631 1249Q631 1178 589 1129T471 1059Q555 1034 601 980T647 850Q647 741 568 676T354 610Q223 610 148 669T61 840H152ZM401 -39L1319 1479H1425L510 -39H401ZM1540 0V207H1124L1624 840V272H1718V207H1624V0H1540ZM1540 272V641L1249 272H1540Z"  />
<glyph unicode="&#xBF;" horiz-adv-x="1053" d="M750 365H868V332Q868 160 771 61T506 -39Q354 -39 263 52T172 295Q172 406 220 481T416 651Q442 668 490 698Q688 820 688 928Q688 1000 642 1043T518 1087Q429 1087 381 1041T332 909V891H221V915Q221 1050 301 1122T532 1194Q657 1194 735 1119T813 926Q813 838 767 772T596 623Q571 606 524 576Q297 433 297 303Q297 206 355 148T512 90Q626 90 688 160T750 358V365ZM639 1395Q639 1352 610 1322T537 1292Q494 1292 465 1321T436 1395Q436 1438 465 1467T537 1497Q580 1497 609 1468T639 1395Z"  />
<glyph unicode="&#xC0;" horiz-adv-x="1223" d="M-18 0L625 1522L1241 0H1096L909 496H311L117 0H-18ZM356 610H866L616 1247L356 610ZM745 1608H651L368 1958H532L745 1608Z"  />
<glyph unicode="&#xC1;" horiz-adv-x="1223" d="M-18 0L625 1522L1241 0H1096L909 496H311L117 0H-18ZM356 610H866L616 1247L356 610ZM479 1608L692 1958H856L573 1608H479Z"  />
<glyph unicode="&#xC2;" horiz-adv-x="1223" d="M-18 0L625 1522L1241 0H1096L909 496H311L117 0H-18ZM356 610H866L616 1247L356 610ZM325 1608L538 1958H684L897 1608H805L612 1858L417 1608H325Z"  />
<glyph unicode="&#xC3;" horiz-adv-x="1223" d="M-18 0L625 1522L1241 0H1096L909 496H311L117 0H-18ZM356 610H866L616 1247L356 610ZM903 1872Q878 1782 828 1735T704 1688Q688 1688 672 1690T639 1698L559 1725Q547 1729 533 1731T501 1733Q470 1733 448 1718T409 1672H321Q343 1759 393 1804T520 1850Q537 1850 552 1848T579 1842L657 1815Q674 1810 689 1808T718 1805Q754 1805 778 1822T815 1872H903Z"  />
<glyph unicode="&#xC4;" horiz-adv-x="1223" d="M-18 0L625 1522L1241 0H1096L909 496H311L117 0H-18ZM356 610H866L616 1247L356 610ZM340 1766Q340 1806 368 1835T436 1864Q476 1864 505 1835T534 1766Q534 1725 506 1698T436 1670Q394 1670 367 1696T340 1766ZM690 1766Q690 1806 719 1835T788 1864Q828 1864 856 1835T884 1766Q884 1724 857 1697T788 1670Q746 1670 718 1697T690 1766Z"  />
<glyph unicode="&#xC5;" horiz-adv-x="1223" d="M-18 0L606 1460H645L1241 0H1096L909 496H311L117 0H-18ZM356 610H866L616 1243L356 610ZM389 1737Q389 1837 457 1904T625 1972Q724 1972 792 1905T860 1737Q860 1638 792 1570T625 1501Q526 1501 458 1569T389 1737ZM492 1737Q492 1681 530 1643T625 1604Q680 1604 719 1642T758 1737Q758 1793 720 1831T625 1870Q569 1870 531 1832T492 1737Z"  />
<glyph unicode="&#xC6;" horiz-adv-x="1688" d="M135 0H8L537 1464H1155L1196 1339H690L848 881H1374L1417 756H891L1106 125H1638L1679 0H1014L844 496H311L135 0ZM348 610H805L588 1272L348 610Z"  />
<glyph unicode="&#xC7;" horiz-adv-x="1464" d="M1358 1196Q1249 1290 1135 1335T895 1380Q611 1380 434 1200T256 731Q256 586 299 470T432 264Q520 176 633 130T877 84Q1003 84 1123 127T1350 254V98Q1242 32 1122 -3T883 -39Q724 -39 579 18T330 178Q223 284 168 424T113 731Q113 895 169 1037T332 1282Q435 1383 580 1440T883 1497Q1023 1497 1142 1459T1360 1343L1358 1196ZM649 -379V-309Q747 -329 794 -335T874 -342Q937 -342 968 -320T999 -254Q999 -208 964 -186T858 -164Q852 -164 838 -165T817 -166V0H878V-100H893Q996 -100 1051 -139T1106 -252Q1106 -334 1052 -375T891 -416Q841 -416 782 -407T649 -379Z"  />
<glyph unicode="&#xC8;" horiz-adv-x="1051" d="M182 0V1464H907V1339H315V881H907V756H315V125H907V0H182ZM674 1608H580L297 1958H461L674 1608Z"  />
<glyph unicode="&#xC9;" horiz-adv-x="1051" d="M182 0V1464H907V1339H315V881H907V756H315V125H907V0H182ZM408 1608L621 1958H785L502 1608H408Z"  />
<glyph unicode="&#xCA;" horiz-adv-x="1051" d="M182 0V1464H907V1339H315V881H907V756H315V125H907V0H182ZM254 1608L467 1958H613L826 1608H734L541 1858L346 1608H254Z"  />
<glyph unicode="&#xCB;" horiz-adv-x="1051" d="M182 0V1464H907V1339H315V881H907V756H315V125H907V0H182ZM269 1766Q269 1806 297 1835T365 1864Q405 1864 434 1835T463 1766Q463 1725 435 1698T365 1670Q323 1670 296 1696T269 1766ZM619 1766Q619 1806 648 1835T717 1864Q757 1864 785 1835T813 1766Q813 1724 786 1697T717 1670Q675 1670 647 1697T619 1766Z"  />
<glyph unicode="&#xCC;" horiz-adv-x="498" d="M182 0V1464H315V0H182ZM384 1608H290L7 1958H171L384 1608Z"  />
<glyph unicode="&#xCD;" horiz-adv-x="498" d="M182 0V1464H315V0H182ZM118 1608L331 1958H495L212 1608H118Z"  />
<glyph unicode="&#xCE;" horiz-adv-x="498" d="M182 0V1464H315V0H182ZM-36 1608L177 1958H323L536 1608H444L251 1858L56 1608H-36Z"  />
<glyph unicode="&#xCF;" horiz-adv-x="498" d="M182 0V1464H315V0H182ZM-21 1766Q-21 1806 7 1835T75 1864Q115 1864 144 1835T173 1766Q173 1725 145 1698T75 1670Q33 1670 6 1696T-21 1766ZM329 1766Q329 1806 358 1835T427 1864Q467 1864 495 1835T523 1766Q523 1724 496 1697T427 1670Q385 1670 357 1697T329 1766Z"  />
<glyph unicode="&#xD0;" horiz-adv-x="1436" d="M193 0V762H0V864H193V1464H420Q728 1464 855 1434T1073 1331Q1196 1232 1259 1079T1323 731Q1323 536 1259 384T1071 133Q979 61 857 31T444 0H420H193ZM326 115H510Q738 115 833 140T995 227Q1087 313 1133 440T1180 733Q1180 902 1133 1030T993 1239Q923 1302 822 1328T467 1354H442H326V864H752V762H326V115Z"  />
<glyph unicode="&#xD1;" horiz-adv-x="1526" d="M182 0V1526L1219 301V1464H1343V-43L307 1184V0H182ZM1055 1872Q1030 1782 980 1735T856 1688Q840 1688 824 1690T791 1698L711 1725Q699 1729 685 1731T653 1733Q622 1733 600 1718T561 1672H473Q495 1759 545 1804T672 1850Q689 1850 704 1848T731 1842L809 1815Q826 1810 841 1808T870 1805Q906 1805 930 1822T967 1872H1055Z"  />
<glyph unicode="&#xD2;" horiz-adv-x="1792" d="M1679 729Q1679 574 1620 435T1450 186Q1337 76 1195 19T895 -39Q737 -39 596 18T342 186Q230 297 172 435T113 729Q113 886 171 1025T342 1276Q452 1385 593 1441T895 1497Q1057 1497 1198 1441T1450 1276Q1562 1165 1620 1026T1679 729ZM895 80Q1025 80 1141 128T1350 268Q1441 361 1489 479T1538 729Q1538 861 1490 978T1350 1190Q1259 1282 1143 1330T895 1378Q765 1378 650 1330T442 1190Q350 1095 302 979T254 729Q254 597 302 480T442 268Q534 175 648 128T895 80ZM1030 1608H936L653 1958H817L1030 1608Z"  />
<glyph unicode="&#xD3;" horiz-adv-x="1792" d="M1679 729Q1679 574 1620 435T1450 186Q1337 76 1195 19T895 -39Q737 -39 596 18T342 186Q230 297 172 435T113 729Q113 886 171 1025T342 1276Q452 1385 593 1441T895 1497Q1057 1497 1198 1441T1450 1276Q1562 1165 1620 1026T1679 729ZM895 80Q1025 80 1141 128T1350 268Q1441 361 1489 479T1538 729Q1538 861 1490 978T1350 1190Q1259 1282 1143 1330T895 1378Q765 1378 650 1330T442 1190Q350 1095 302 979T254 729Q254 597 302 480T442 268Q534 175 648 128T895 80ZM764 1608L977 1958H1141L858 1608H764Z"  />
<glyph unicode="&#xD4;" horiz-adv-x="1792" d="M1679 729Q1679 574 1620 435T1450 186Q1337 76 1195 19T895 -39Q737 -39 596 18T342 186Q230 297 172 435T113 729Q113 886 171 1025T342 1276Q452 1385 593 1441T895 1497Q1057 1497 1198 1441T1450 1276Q1562 1165 1620 1026T1679 729ZM895 80Q1025 80 1141 128T1350 268Q1441 361 1489 479T1538 729Q1538 861 1490 978T1350 1190Q1259 1282 1143 1330T895 1378Q765 1378 650 1330T442 1190Q350 1095 302 979T254 729Q254 597 302 480T442 268Q534 175 648 128T895 80ZM610 1608L823 1958H969L1182 1608H1090L897 1858L702 1608H610Z"  />
<glyph unicode="&#xD5;" horiz-adv-x="1792" d="M1679 729Q1679 574 1620 435T1450 186Q1337 76 1195 19T895 -39Q737 -39 596 18T342 186Q230 297 172 435T113 729Q113 886 171 1025T342 1276Q452 1385 593 1441T895 1497Q1057 1497 1198 1441T1450 1276Q1562 1165 1620 1026T1679 729ZM895 80Q1025 80 1141 128T1350 268Q1441 361 1489 479T1538 729Q1538 861 1490 978T1350 1190Q1259 1282 1143 1330T895 1378Q765 1378 650 1330T442 1190Q350 1095 302 979T254 729Q254 597 302 480T442 268Q534 175 648 128T895 80ZM1188 1872Q1163 1782 1113 1735T989 1688Q973 1688 957 1690T924 1698L844 1725Q832 1729 818 1731T786 1733Q755 1733 733 1718T694 1672H606Q628 1759 678 1804T805 1850Q822 1850 837 1848T864 1842L942 1815Q959 1810 974 1808T1003 1805Q1039 1805 1063 1822T1100 1872H1188Z"  />
<glyph unicode="&#xD6;" horiz-adv-x="1792" d="M1679 729Q1679 574 1620 435T1450 186Q1337 76 1195 19T895 -39Q737 -39 596 18T342 186Q230 297 172 435T113 729Q113 886 171 1025T342 1276Q452 1385 593 1441T895 1497Q1057 1497 1198 1441T1450 1276Q1562 1165 1620 1026T1679 729ZM895 80Q1025 80 1141 128T1350 268Q1441 361 1489 479T1538 729Q1538 861 1490 978T1350 1190Q1259 1282 1143 1330T895 1378Q765 1378 650 1330T442 1190Q350 1095 302 979T254 729Q254 597 302 480T442 268Q534 175 648 128T895 80ZM625 1766Q625 1806 653 1835T721 1864Q761 1864 790 1835T819 1766Q819 1725 791 1698T721 1670Q679 1670 652 1696T625 1766ZM975 1766Q975 1806 1004 1835T1073 1864Q1113 1864 1141 1835T1169 1766Q1169 1724 1142 1697T1073 1670Q1031 1670 1003 1697T975 1766Z"  />
<glyph unicode="&#xD7;" horiz-adv-x="1706" d="M854 668L1341 1155L1399 1098L911 610L1399 123L1341 66L854 553L367 66L309 123L797 610L309 1098L367 1155L854 668Z"  />
<glyph unicode="&#xD8;" horiz-adv-x="1792" d="M219 -45L154 25L330 205Q224 307 169 442T113 731Q113 887 171 1026T342 1274Q453 1383 595 1441T895 1499Q1047 1499 1176 1452T1409 1313L1593 1505L1663 1438L1477 1247Q1574 1142 1626 1008T1679 731Q1679 575 1621 436T1450 188Q1338 79 1195 23T885 -33Q745 -33 626 9T397 139L219 -45ZM1319 1221Q1228 1300 1122 1340T895 1380Q765 1380 649 1332T442 1192Q351 1099 304 982T256 731Q256 608 296 503T422 297L1319 1221ZM489 233Q586 157 685 121T895 84Q1023 84 1141 133T1350 274Q1442 366 1490 483T1538 731Q1538 848 1501 951T1384 1153L489 233Z"  />
<glyph unicode="&#xD9;" horiz-adv-x="1417" d="M176 1464H307V508Q307 291 406 186T709 80Q910 80 1009 185T1108 508V1464H1241V551Q1241 254 1109 108T709 -39Q440 -39 308 107T176 551V1464ZM842 1608H748L465 1958H629L842 1608Z"  />
<glyph unicode="&#xDA;" horiz-adv-x="1417" d="M176 1464H307V508Q307 291 406 186T709 80Q910 80 1009 185T1108 508V1464H1241V551Q1241 254 1109 108T709 -39Q440 -39 308 107T176 551V1464ZM576 1608L789 1958H953L670 1608H576Z"  />
<glyph unicode="&#xDB;" horiz-adv-x="1417" d="M176 1464H307V508Q307 291 406 186T709 80Q910 80 1009 185T1108 508V1464H1241V551Q1241 254 1109 108T709 -39Q440 -39 308 107T176 551V1464ZM422 1608L635 1958H781L994 1608H902L709 1858L514 1608H422Z"  />
<glyph unicode="&#xDC;" horiz-adv-x="1417" d="M176 1464H307V508Q307 291 406 186T709 80Q910 80 1009 185T1108 508V1464H1241V551Q1241 254 1109 108T709 -39Q440 -39 308 107T176 551V1464ZM437 1766Q437 1806 465 1835T533 1864Q573 1864 602 1835T631 1766Q631 1725 603 1698T533 1670Q491 1670 464 1696T437 1766ZM787 1766Q787 1806 816 1835T885 1864Q925 1864 953 1835T981 1766Q981 1724 954 1697T885 1670Q843 1670 815 1697T787 1766Z"  />
<glyph unicode="&#xDD;" horiz-adv-x="1118" d="M496 0V674L10 1464H170L563 793L958 1464H1110L629 674V0H496ZM426 1608L639 1958H803L520 1608H426Z"  />
<glyph unicode="&#xDE;" horiz-adv-x="1024" d="M182 0V1464H315V1165H426Q602 1165 678 1148T811 1090Q880 1039 918 953T956 762Q956 552 839 454T469 356H315V0H182ZM315 473H406Q648 473 731 534T815 750Q815 816 796 871T739 969Q700 1012 635 1029T406 1047H315V473Z"  />
<glyph unicode="&#xDF;" horiz-adv-x="1059" d="M154 0V782H33V887H154V1184Q154 1370 246 1470T510 1571Q676 1571 772 1467T868 1182Q868 1066 814 986T651 864Q802 847 881 737T961 432Q961 214 846 85T535 -45Q506 -45 476 -39T412 -20V111Q443 95 475 88T543 80Q681 80 756 172T831 434Q831 613 748 707T506 801Q494 801 479 800T434 797V921Q442 921 452 921T483 920Q615 920 678 986T741 1190Q741 1321 680 1389T500 1458Q431 1458 380 1427T303 1337Q289 1305 283 1258T276 1110V1026V0H154Z"  />
<glyph unicode="&#xE0;" horiz-adv-x="1108" d="M819 0V162Q775 64 696 13T508 -39Q317 -39 201 92T84 438Q84 651 199 785T496 920Q609 920 691 871T819 725V887H942V0H819ZM221 434Q221 262 298 169T520 76Q660 76 740 177T821 457Q821 620 741 713T522 807Q383 807 302 708T221 434ZM688 1030H594L311 1380H475L688 1030Z"  />
<glyph unicode="&#xE1;" horiz-adv-x="1108" d="M819 0V162Q775 64 696 13T508 -39Q317 -39 201 92T84 438Q84 651 199 785T496 920Q609 920 691 871T819 725V887H942V0H819ZM221 434Q221 262 298 169T520 76Q660 76 740 177T821 457Q821 620 741 713T522 807Q383 807 302 708T221 434ZM422 1030L635 1380H799L516 1030H422Z"  />
<glyph unicode="&#xE2;" horiz-adv-x="1108" d="M819 0V162Q775 64 696 13T508 -39Q317 -39 201 92T84 438Q84 651 199 785T496 920Q609 920 691 871T819 725V887H942V0H819ZM221 434Q221 262 298 169T520 76Q660 76 740 177T821 457Q821 620 741 713T522 807Q383 807 302 708T221 434ZM268 1030L481 1380H627L840 1030H748L555 1280L360 1030H268Z"  />
<glyph unicode="&#xE3;" horiz-adv-x="1108" d="M819 0V162Q775 64 696 13T508 -39Q317 -39 201 92T84 438Q84 651 199 785T496 920Q609 920 691 871T819 725V887H942V0H819ZM221 434Q221 262 298 169T520 76Q660 76 740 177T821 457Q821 620 741 713T522 807Q383 807 302 708T221 434ZM846 1294Q821 1204 771 1157T647 1110Q631 1110 615 1112T582 1120L502 1147Q490 1151 476 1153T444 1155Q413 1155 391 1140T352 1094H264Q286 1181 336 1226T463 1272Q480 1272 495 1270T522 1264L600 1237Q617 1232 632 1230T661 1227Q697 1227 721 1244T758 1294H846Z"  />
<glyph unicode="&#xE4;" horiz-adv-x="1108" d="M819 0V162Q775 64 696 13T508 -39Q317 -39 201 92T84 438Q84 651 199 785T496 920Q609 920 691 871T819 725V887H942V0H819ZM221 434Q221 262 298 169T520 76Q660 76 740 177T821 457Q821 620 741 713T522 807Q383 807 302 708T221 434ZM283 1188Q283 1228 311 1257T379 1286Q419 1286 448 1257T477 1188Q477 1147 449 1120T379 1092Q337 1092 310 1118T283 1188ZM633 1188Q633 1228 662 1257T731 1286Q771 1286 799 1257T827 1188Q827 1146 800 1119T731 1092Q689 1092 661 1119T633 1188Z"  />
<glyph unicode="&#xE5;" horiz-adv-x="1108" d="M291 1221Q291 1320 358 1388T526 1456Q626 1456 694 1388T762 1221Q762 1122 694 1054T526 985Q428 985 360 1053T291 1221ZM393 1221Q393 1165 432 1126T526 1087Q582 1087 620 1126T659 1221Q659 1277 621 1316T526 1356Q471 1356 432 1317T393 1221ZM819 0V162Q775 64 696 13T508 -39Q317 -39 201 92T84 438Q84 651 199 785T496 920Q609 920 691 871T819 725V887H942V0H819ZM221 434Q221 262 298 169T520 76Q660 76 740 177T821 457Q821 620 741 713T522 807Q383 807 302 708T221 434Z"  />
<glyph unicode="&#xE6;" horiz-adv-x="1624" d="M702 270Q702 346 635 392T455 438Q338 438 273 388T207 250Q207 165 267 120T440 74Q556 74 629 129T702 270ZM838 543H1389Q1381 665 1308 733T1112 801Q1001 801 926 730T838 543ZM1534 438H829Q835 267 913 171T1124 74Q1227 74 1301 126T1423 285L1540 223Q1471 89 1370 24T1126 -41Q1003 -41 914 13T764 180Q727 75 634 17T408 -41Q256 -41 164 38T72 246Q72 378 171 460T434 543Q521 543 590 521T710 455Q712 467 712 480T713 520Q713 669 646 741T438 813Q362 813 288 794T137 735L139 866Q214 893 290 906T449 920Q584 920 675 871T791 733Q839 822 925 871T1120 920Q1309 920 1421 795T1534 459V438Z"  />
<glyph unicode="&#xE7;" horiz-adv-x="934" d="M854 725Q792 768 722 789T578 811Q413 811 315 706T217 424Q217 268 318 167T578 66Q650 66 723 91T868 166V31Q803 -6 724 -24T555 -43Q352 -43 222 90T92 432Q92 649 227 784T580 920Q660 920 730 905T856 860L854 725ZM334 -379V-309Q432 -329 479 -335T559 -342Q622 -342 653 -320T684 -254Q684 -208 649 -186T543 -164Q537 -164 523 -165T502 -166V0H563V-100H578Q681 -100 736 -139T791 -252Q791 -334 737 -375T576 -416Q526 -416 467 -407T334 -379Z"  />
<glyph unicode="&#xE8;" horiz-adv-x="1018" d="M926 440H221Q226 268 307 170T524 72Q622 72 696 125T819 285L932 223Q864 88 766 25T524 -39Q329 -39 209 91T88 434Q88 652 207 786T520 920Q704 920 815 797T926 467V440ZM780 545Q771 667 699 734T504 801Q392 801 317 731T229 545H780ZM644 1030H550L267 1380H431L644 1030Z"  />
<glyph unicode="&#xE9;" horiz-adv-x="1018" d="M926 440H221Q226 268 307 170T524 72Q622 72 696 125T819 285L932 223Q864 88 766 25T524 -39Q329 -39 209 91T88 434Q88 652 207 786T520 920Q704 920 815 797T926 467V440ZM780 545Q771 667 699 734T504 801Q392 801 317 731T229 545H780ZM378 1030L591 1380H755L472 1030H378Z"  />
<glyph unicode="&#xEA;" horiz-adv-x="1018" d="M926 440H221Q226 268 307 170T524 72Q622 72 696 125T819 285L932 223Q864 88 766 25T524 -39Q329 -39 209 91T88 434Q88 652 207 786T520 920Q704 920 815 797T926 467V440ZM780 545Q771 667 699 734T504 801Q392 801 317 731T229 545H780ZM224 1030L437 1380H583L796 1030H704L511 1280L316 1030H224Z"  />
<glyph unicode="&#xEB;" horiz-adv-x="1018" d="M926 440H221Q226 268 307 170T524 72Q622 72 696 125T819 285L932 223Q864 88 766 25T524 -39Q329 -39 209 91T88 434Q88 652 207 786T520 920Q704 920 815 797T926 467V440ZM780 545Q771 667 699 734T504 801Q392 801 317 731T229 545H780ZM239 1188Q239 1228 267 1257T335 1286Q375 1286 404 1257T433 1188Q433 1147 405 1120T335 1092Q293 1092 266 1118T239 1188ZM589 1188Q589 1228 618 1257T687 1286Q727 1286 755 1257T783 1188Q783 1146 756 1119T687 1092Q645 1092 617 1119T589 1188Z"  />
<glyph unicode="&#xEC;" horiz-adv-x="471" d="M172 0V887H299V0H172ZM370 1030H276L-7 1380H157L370 1030Z"  />
<glyph unicode="&#xED;" horiz-adv-x="471" d="M172 0V887H299V0H172ZM104 1030L317 1380H481L198 1030H104Z"  />
<glyph unicode="&#xEE;" horiz-adv-x="471" d="M172 0V887H299V0H172ZM-50 1030L163 1380H309L522 1030H430L237 1280L42 1030H-50Z"  />
<glyph unicode="&#xEF;" horiz-adv-x="471" d="M172 0V887H299V0H172ZM-35 1188Q-35 1228 -7 1257T61 1286Q101 1286 130 1257T159 1188Q159 1147 131 1120T61 1092Q19 1092 -8 1118T-35 1188ZM315 1188Q315 1228 344 1257T413 1286Q453 1286 481 1257T509 1188Q509 1146 482 1119T413 1092Q371 1092 343 1119T315 1188Z"  />
<glyph unicode="&#xF0;" horiz-adv-x="1139" d="M893 741Q858 872 775 998T569 1233L256 1087L209 1169L485 1300Q440 1337 381 1375T242 1458L301 1548Q403 1489 476 1440T598 1352L940 1511L991 1427L684 1280Q868 1096 960 900T1053 496Q1053 252 921 107T567 -39Q473 -39 383 -3T223 100Q155 165 120 248T84 424Q84 517 120 601T223 750Q291 815 377 851T549 887Q640 887 725 851T893 741ZM567 76Q712 76 813 178T915 428Q915 576 814 678T567 780Q421 780 320 678T219 428Q219 281 320 179T567 76Z"  />
<glyph unicode="&#xF1;" horiz-adv-x="1067" d="M164 0V887H281V750Q335 835 413 877T594 920Q745 920 829 836T913 602V0H788V547Q788 680 733 744T561 809Q420 809 354 726T287 463V0H164ZM826 1294Q801 1204 751 1157T627 1110Q611 1110 595 1112T562 1120L482 1147Q470 1151 456 1153T424 1155Q393 1155 371 1140T332 1094H244Q266 1181 316 1226T443 1272Q460 1272 475 1270T502 1264L580 1237Q597 1232 612 1230T641 1227Q677 1227 701 1244T738 1294H826Z"  />
<glyph unicode="&#xF2;" horiz-adv-x="1143" d="M567 -39Q472 -39 385 -2T227 106Q160 172 125 258T90 442Q90 539 126 626T229 780Q297 848 384 884T567 920Q665 920 753 884T911 780Q980 712 1016 625T1053 442Q1053 346 1017 260T913 106Q843 36 754 -1T567 -39ZM571 76Q717 76 818 181T920 440Q920 595 819 700T571 805Q425 805 324 700T223 440Q223 287 324 182T571 76ZM704 1030H610L327 1380H491L704 1030Z"  />
<glyph unicode="&#xF3;" horiz-adv-x="1143" d="M567 -39Q472 -39 385 -2T227 106Q160 172 125 258T90 442Q90 539 126 626T229 780Q297 848 384 884T567 920Q665 920 753 884T911 780Q980 712 1016 625T1053 442Q1053 346 1017 260T913 106Q843 36 754 -1T567 -39ZM571 76Q717 76 818 181T920 440Q920 595 819 700T571 805Q425 805 324 700T223 440Q223 287 324 182T571 76ZM438 1030L651 1380H815L532 1030H438Z"  />
<glyph unicode="&#xF4;" horiz-adv-x="1143" d="M567 -39Q472 -39 385 -2T227 106Q160 172 125 258T90 442Q90 539 126 626T229 780Q297 848 384 884T567 920Q665 920 753 884T911 780Q980 712 1016 625T1053 442Q1053 346 1017 260T913 106Q843 36 754 -1T567 -39ZM571 76Q717 76 818 181T920 440Q920 595 819 700T571 805Q425 805 324 700T223 440Q223 287 324 182T571 76ZM284 1030L497 1380H643L856 1030H764L571 1280L376 1030H284Z"  />
<glyph unicode="&#xF5;" horiz-adv-x="1143" d="M567 -39Q472 -39 385 -2T227 106Q160 172 125 258T90 442Q90 539 126 626T229 780Q297 848 384 884T567 920Q665 920 753 884T911 780Q980 712 1016 625T1053 442Q1053 346 1017 260T913 106Q843 36 754 -1T567 -39ZM571 76Q717 76 818 181T920 440Q920 595 819 700T571 805Q425 805 324 700T223 440Q223 287 324 182T571 76ZM862 1294Q837 1204 787 1157T663 1110Q647 1110 631 1112T598 1120L518 1147Q506 1151 492 1153T460 1155Q429 1155 407 1140T368 1094H280Q302 1181 352 1226T479 1272Q496 1272 511 1270T538 1264L616 1237Q633 1232 648 1230T677 1227Q713 1227 737 1244T774 1294H862Z"  />
<glyph unicode="&#xF6;" horiz-adv-x="1143" d="M567 -39Q472 -39 385 -2T227 106Q160 172 125 258T90 442Q90 539 126 626T229 780Q297 848 384 884T567 920Q665 920 753 884T911 780Q980 712 1016 625T1053 442Q1053 346 1017 260T913 106Q843 36 754 -1T567 -39ZM571 76Q717 76 818 181T920 440Q920 595 819 700T571 805Q425 805 324 700T223 440Q223 287 324 182T571 76ZM299 1188Q299 1228 327 1257T395 1286Q435 1286 464 1257T493 1188Q493 1147 465 1120T395 1092Q353 1092 326 1118T299 1188ZM649 1188Q649 1228 678 1257T747 1286Q787 1286 815 1257T843 1188Q843 1146 816 1119T747 1092Q705 1092 677 1119T649 1188Z"  />
<glyph unicode="&#xF7;" horiz-adv-x="1706" d="M854 1055Q895 1055 923 1027T952 956Q952 916 924 886T854 856Q813 856 785 885T756 956Q756 997 784 1026T854 1055ZM1452 651V569H254V651H1452ZM854 365Q895 365 923 336T952 264Q952 224 924 195T854 166Q813 166 785 194T756 264Q756 305 785 335T854 365Z"  />
<glyph unicode="&#xF8;" horiz-adv-x="1143" d="M793 723Q748 765 696 785T582 805Q423 805 323 702T223 434Q223 376 240 324T293 221L793 723ZM346 160Q397 118 450 98T563 78Q717 78 817 181T918 444Q918 504 901 557T850 664L346 160ZM147 -41L92 18L203 131Q144 204 116 278T88 432Q88 640 227 780T575 920Q660 920 733 893T877 809L987 922L1049 864L936 754Q995 681 1024 605T1053 444Q1053 237 912 99T559 -39Q477 -39 405 -12T264 74L147 -41Z"  />
<glyph unicode="&#xF9;" horiz-adv-x="1079" d="M287 887V444Q287 242 344 159T539 76Q675 76 734 160T793 444V887H915V381Q915 174 820 68T541 -39Q356 -39 260 67T164 381V887H287ZM674 1030H580L297 1380H461L674 1030Z"  />
<glyph unicode="&#xFA;" horiz-adv-x="1079" d="M287 887V444Q287 242 344 159T539 76Q675 76 734 160T793 444V887H915V381Q915 174 820 68T541 -39Q356 -39 260 67T164 381V887H287ZM408 1030L621 1380H785L502 1030H408Z"  />
<glyph unicode="&#xFB;" horiz-adv-x="1079" d="M287 887V444Q287 242 344 159T539 76Q675 76 734 160T793 444V887H915V381Q915 174 820 68T541 -39Q356 -39 260 67T164 381V887H287ZM254 1030L467 1380H613L826 1030H734L541 1280L346 1030H254Z"  />
<glyph unicode="&#xFC;" horiz-adv-x="1079" d="M287 887V444Q287 242 344 159T539 76Q675 76 734 160T793 444V887H915V381Q915 174 820 68T541 -39Q356 -39 260 67T164 381V887H287ZM269 1188Q269 1228 297 1257T365 1286Q405 1286 434 1257T463 1188Q463 1147 435 1120T365 1092Q323 1092 296 1118T269 1188ZM619 1188Q619 1228 648 1257T717 1286Q757 1286 785 1257T813 1188Q813 1146 786 1119T717 1092Q675 1092 647 1119T619 1188Z"  />
<glyph unicode="&#xFD;" horiz-adv-x="825" d="M43 887H174L428 193L662 887H793L334 -446H207L362 6L43 887ZM282 1030L495 1380H659L376 1030H282Z"  />
<glyph unicode="&#xFE;" horiz-adv-x="1108" d="M283 164V-446H164V1550H283V721Q324 814 408 867T600 920Q787 920 901 789T1016 440Q1016 221 905 91T606 -39Q499 -39 417 12T283 164ZM883 438Q883 610 805 708T588 807Q446 807 366 712T285 449Q285 279 371 178T600 76Q734 76 808 171T883 438Z"  />
<glyph unicode="&#xFF;" horiz-adv-x="825" d="M43 887H174L428 193L662 887H793L334 -446H207L362 6L43 887ZM143 1188Q143 1228 171 1257T239 1286Q279 1286 308 1257T337 1188Q337 1147 309 1120T239 1092Q197 1092 170 1118T143 1188ZM493 1188Q493 1228 522 1257T591 1286Q631 1286 659 1257T687 1188Q687 1146 660 1119T591 1092Q549 1092 521 1119T493 1188Z"  />
<glyph unicode="&#x131;" horiz-adv-x="471" d="M172 0V887H299V0H172Z"  />
<glyph unicode="&#x152;" horiz-adv-x="2320" d="M242 731Q242 601 288 485T426 272Q511 182 624 134T862 86Q991 86 1101 133T1298 270Q1386 364 1432 482T1479 731Q1479 871 1436 986T1307 1190Q1218 1283 1106 1330T862 1378Q738 1378 626 1331T426 1192Q335 1096 289 980T242 731ZM2181 1464V1339H1606V881H2181V756H1606V125H2181V0H1483V311Q1386 145 1226 55T866 -35Q764 -35 667 -9T487 68Q306 177 210 349T113 733Q113 890 169 1028T332 1274Q440 1383 580 1441T879 1499Q1077 1499 1229 1414T1483 1161V1464H2181Z"  />
<glyph unicode="&#x153;" horiz-adv-x="1841" d="M1749 442H1044Q1044 277 1125 177T1337 76Q1440 76 1515 129T1638 289L1755 225Q1686 92 1586 27T1352 -39Q1216 -39 1114 26T975 199Q918 86 812 24T569 -39Q472 -39 386 -4T231 100Q163 169 128 256T92 442Q92 538 128 625T231 780Q298 847 385 884T563 922Q707 922 811 863T975 688Q1016 797 1113 859T1339 922Q1526 922 1637 798T1749 463V442ZM1053 545H1604Q1596 668 1523 736T1327 805Q1216 805 1139 732T1053 545ZM573 76Q719 76 820 181T922 440Q922 595 821 700T573 805Q427 805 326 700T225 440Q225 287 326 182T573 76Z"  />
<glyph unicode="&#x160;" horiz-adv-x="1020" d="M70 246L184 307Q216 199 294 140T483 80Q622 80 700 162T778 389Q778 495 726 565T500 727Q279 844 206 933T133 1147Q133 1303 238 1401T512 1499Q622 1499 703 1453T836 1313L733 1251Q701 1314 643 1347T504 1380Q396 1380 332 1317T268 1145Q268 991 522 858Q568 834 592 821Q779 718 842 627T905 389Q905 192 790 77T477 -39Q333 -39 231 32T70 246ZM796 1958L583 1608H437L224 1958H316L511 1708L704 1958H796Z"  />
<glyph unicode="&#x161;" horiz-adv-x="782" d="M63 158L180 225Q209 151 264 114T399 76Q477 76 523 115T569 221Q569 323 388 394Q369 401 358 406Q218 461 162 519T106 664Q106 777 186 849T393 922Q501 922 577 875T688 741L575 678Q554 741 505 774T385 807Q321 807 280 770T238 676Q238 621 279 585T449 506Q595 455 645 395T696 229Q696 107 609 34T375 -39Q262 -39 181 12T63 158ZM677 1380L464 1030H318L105 1380H197L392 1130L585 1380H677Z"  />
<glyph unicode="&#x178;" horiz-adv-x="1118" d="M496 0V674L10 1464H170L563 793L958 1464H1110L629 674V0H496ZM287 1766Q287 1806 315 1835T383 1864Q423 1864 452 1835T481 1766Q481 1725 453 1698T383 1670Q341 1670 314 1696T287 1766ZM637 1766Q637 1806 666 1835T735 1864Q775 1864 803 1835T831 1766Q831 1724 804 1697T735 1670Q693 1670 665 1697T637 1766Z"  />
<glyph unicode="&#x17D;" horiz-adv-x="1147" d="M25 0L895 1343H152V1464H1122L256 123H1034V0H25ZM858 1958L645 1608H499L286 1958H378L573 1708L766 1958H858Z"  />
<glyph unicode="&#x17E;" horiz-adv-x="780" d="M23 0L518 776H57V887H731L240 111H745V0H23ZM677 1380L464 1030H318L105 1380H197L392 1130L585 1380H677Z"  />
<glyph unicode="&#x192;" horiz-adv-x="1180" d="M658 825L570 25Q539 -253 476 -352T278 -451Q258 -450 235 -447T186 -436L217 -318Q228 -324 242 -327T278 -330Q348 -330 381 -262T445 86L527 825H364L374 920H538L558 1102Q581 1309 647 1394T849 1479Q885 1479 916 1472T976 1450L955 1343Q922 1355 896 1360T849 1366Q775 1366 741 1317T687 1094L669 920H863L857 825H658Z"  />
<glyph unicode="&#x2C6;" horiz-adv-x="1024" d="M225 1030L438 1380H584L797 1030H705L512 1280L317 1030H225Z"  />
<glyph unicode="&#x2C7;" horiz-adv-x="1024" d="M797 1380L584 1030H438L225 1380H317L512 1130L705 1380H797Z"  />
<glyph unicode="&#x2DC;" horiz-adv-x="1024" d="M803 1294Q778 1204 728 1157T604 1110Q588 1110 572 1112T539 1120L459 1147Q447 1151 433 1153T401 1155Q370 1155 348 1140T309 1094H221Q243 1181 293 1226T420 1272Q437 1272 452 1270T479 1264L557 1237Q574 1232 589 1230T618 1227Q654 1227 678 1244T715 1294H803Z"  />
<glyph unicode="&#x2013;" horiz-adv-x="1024" d="M0 481H1024V401H0V481Z"  />
<glyph unicode="&#x2014;" horiz-adv-x="2048" d="M0 401V481H2048V401H0Z"  />
<glyph unicode="&#x2018;" horiz-adv-x="590" d="M467 1466L272 926L123 993L385 1497L467 1466Z"  />
<glyph unicode="&#x2019;" horiz-adv-x="590" d="M123 958L317 1497L467 1432L205 926L123 958Z"  />
<glyph unicode="&#x201A;" horiz-adv-x="590" d="M324 254L469 193L205 -322L121 -283L324 254Z"  />
<glyph unicode="&#x201C;" horiz-adv-x="877" d="M449 1466L254 926L106 993L367 1497L449 1466ZM772 1466L578 926L428 993L690 1497L772 1466Z"  />
<glyph unicode="&#x201D;" horiz-adv-x="877" d="M106 958L299 1497L449 1432L186 926L106 958ZM428 958L623 1497L772 1432L510 926L428 958Z"  />
<glyph unicode="&#x201E;" horiz-adv-x="877" d="M106 -287L299 254L449 186L186 -319L106 -287ZM428 -287L623 254L772 186L510 -319L428 -287Z"  />
<glyph unicode="&#x2020;" horiz-adv-x="1042" d="M461 -446V774H100V889H461V1464H584V889H944V774H584V-446H461Z"  />
<glyph unicode="&#x2021;" horiz-adv-x="1042" d="M459 -446V39H100V152H459V872H100V985H459V1464H582V985H944V872H582V152H944V39H582V-446H459Z"  />
<glyph unicode="&#x2022;" horiz-adv-x="1208" d="M307 762Q307 885 394 971T604 1057Q726 1057 812 971T899 762Q899 640 812 553T602 465Q479 465 393 552T307 762Z"  />
<glyph unicode="&#x2026;" horiz-adv-x="2048" d="M240 84Q240 127 269 156T342 186Q385 186 414 157T444 84Q444 41 415 12T342 -18Q299 -18 270 11T240 84ZM922 84Q922 127 951 156T1024 186Q1067 186 1096 157T1126 84Q1126 41 1097 12T1024 -18Q981 -18 952 11T922 84ZM1606 84Q1606 127 1635 156T1708 186Q1751 186 1780 157T1810 84Q1810 41 1781 12T1708 -18Q1665 -18 1636 11T1606 84Z"  />
<glyph unicode="&#x2030;" horiz-adv-x="2204" d="M270 -39L1110 1479H1219L377 -39H270ZM649 1104Q649 927 571 828T354 729Q216 729 139 827T61 1104Q61 1281 138 1380T354 1479Q493 1479 571 1380T649 1104ZM180 1106Q180 968 224 896T354 823Q439 823 484 896T530 1106Q530 1244 486 1315T354 1386Q270 1386 225 1314T180 1106ZM1434 334Q1434 157 1356 59T1139 -39Q1000 -39 923 59T846 334Q846 511 923 610T1139 709Q1278 709 1356 610T1434 334ZM965 336Q965 198 1009 126T1139 53Q1223 53 1269 126T1315 336Q1315 474 1270 545T1139 616Q1054 616 1010 544T965 336ZM2142 334Q2142 157 2065 59T1849 -39Q1710 -39 1632 59T1554 334Q1554 511 1632 610T1849 709Q1988 709 2065 610T2142 334ZM1673 336Q1673 199 1718 126T1849 53Q1933 53 1978 126T2023 336Q2023 475 1980 545T1849 616Q1765 616 1719 544T1673 336Z"  />
<glyph unicode="&#x2039;" horiz-adv-x="422" d="M295 51L43 436L287 831L373 780L164 434L379 102L295 51Z"  />
<glyph unicode="&#x203A;" horiz-adv-x="422" d="M125 51L43 102L258 434L47 780L135 831L379 436L125 51Z"  />
<glyph unicode="&#x20AC;" horiz-adv-x="657" d="M31 452H97Q108 515 132 566T193 653T274 709T374 729Q425 729 466 714T538 671T588 606T614 523H520Q508 581 472 614T373 647Q298 647 255 595T197 452H400V395H191Q190 385 190 375T190 355Q190 344 190 334T191 314H400V257H198Q214 163 261 115T381 67Q450 67 488 112T534 226H624Q622 176 605 132T556 56T480 4T382 -15Q328 -15 281 3T197 56T134 141T97 257H31V314H90Q89 324 89 334T89 355Q89 365 89 375T90 395H31V452Z"  />
<glyph unicode="&#x2122;" horiz-adv-x="1706" d="M694 1454V1403H520V924H453V1403H274V1454H694ZM926 1454L1100 1014L1262 1454H1364V924H1305V1403L1124 924H1075L885 1403V924H825V1454H926Z"  />

</font>
</defs>
</svg>
